Скачать через торрент Оцепеневшие от страха Aterrados Фильм бесплатно в хорошем качестве torrent

Скачивайте на UnionPeer.org фильмы через торрент без регистрации. Новинки кино в хорошем качестве через торрент. На UnionPeer.org можно скачать через торрент фильмы 2014 и 2015 годов. Самые новые фильмы.

Скачать торрент Оцепеневшие от страха Aterrados бесплатно через .torrent фильм мультфильм сериал

Статистика раздачи
Размер:  3.07 GB   |    Зарегистрирован:  6 дней   |    .torrent скачан:  162 раза   |   
Раздают:  1  
   
загрузка...
 
Автор Сообщение

Galfimbul

avatar Galfimbul


Оцепеневшие от страха / Aterrados

Год выхода: 2018
Жанр: Ужасы
Страна: Аргентина
Перевод: Дублированный | iTunes
Продолжительность: 01:27:41
Режиссер: Демиан Рунья
В ролях: Максимилиано Гионе, Норберто Гонсало, Эльвира Онетто, Агустин Риттано, Демиан Саломон, Джордж Л. Льюис, Джульета Валлина, Арьель Чаваррия, Уго Албрич, Наталия Сеньоралес и др.

О фильме: Леденящие душу жуткие события сотрясают пригородное местечко, где соседствуют три уютных домика. Неведомая и невидимая сила зверски убивает женщину на глазах мужа. Ночью у кровати его соседа появляется ужасный монстр. А мальчик из дома напротив, погибший под колесами автомобиля, возвращается с кладбища и садится за кухонный стол. Искать причину необъяснимых кошмаров берутся три специалиста по паранормальным явлениям и детектив из отдела по расследованию убийств.



Файл
Формат: MKV
Качество: WEB-DL 1080p
Видео: MPEG-4 AVC, 1920x858, 4619 kbps, 24,000 fps
Звук: русский, AC3, 5.1 ch, 48 kHz, 384 kbps | iTunes
Субтитры: нет
General
Уникальный идентификатор : 230808569160253363241100328158800470839 (0xADA41D0CCEF23ABB86B7912269496337)
Полное имя : F:TorrentAterradosWEB-DL1080p.mkv
Формат : Matroska
Версия формата : Version 4 / Version 2
Размер файла : 3.07 GiB
Продолжительность : 1 h 27 min
Общий поток : 5 005 kb/s
Дата кодирования : UTC 2018-12-06 08:23:45
Программа кодирования : mkvmerge v9.5.0 ('Quiet Fire') 64bit
Библиотека кодирования : libebml v1.3.4 + libmatroska v1.4.5

Video
Идентификатор : 1
Формат : AVC
Формат/Информация : Advanced Video Codec
Профиль формата : High@L4
Настройки формата : CABAC / 5 Ref Frames
Параметр CABAC формата : Yes
Параметр RefFrames формата : 5 frames
Параметр GOP формата : N=1
Идентификатор кодека : V_MPEG4/ISO/AVC
Продолжительность : 1 h 27 min
Битрейт : 4 619 kb/s
Ширина : 1 920 pixels
Высота : 858 pixels
Соотношение сторон : 2.25:1
Режим частоты кадров : Constant
Частота кадров : 24.000 FPS
Цветовое пространство : YUV
Субдискретизация насыщенности : 4:2:0
Битовая глубина : 8 bits
Тип развёртки : Progressive
Бит/(Пиксели*Кадры) : 0.117
Размер потока : 2.83 GiB (92%)
Язык : English
Default : Yes
Forced : No
Цветовой диапазон : Limited
Основные цвета : BT.709
Характеристики трансфера : BT.709
Коэффициенты матрицы : BT.709

Audio
Идентификатор : 2
Формат : AC-3
Формат/Информация : Audio Coding 3
Идентификатор кодека : A_AC3
Продолжительность : 1 h 27 min
Вид битрейта : Constant
Битрейт : 384 kb/s
Каналы : 6 channels
Расположение каналов : Front: L C R, Side: L R, LFE
Частота : 48.0 kHz
Частота кадров : 31.250 FPS (1536 SPF)
Битовая глубина : 16 bits
Метод сжатия : Lossy
Размер потока : 241 MiB (8%)
Язык : Russian
Default : Yes
Forced : No

Menu
00:00:00.000 : en:Глава 1
00:07:41.208 : en:Глава 2
00:14:53.833 : en:Глава 3
00:22:40.166 : en:Глава 4
00:30:19.957 : en:Глава 5
00:37:54.373 : en:Глава 6
00:45:09.081 : en:Глава 7
00:52:20.872 : en:Глава 8
01:00:01.163 : en:Глава 9
01:07:55.663 : en:Глава 10
01:17:31.288 : en:Глава 11
Источник http://BlaTor.org

Трекер:  [ 07-Дек-2018 01:00 ]

  

Скачать .torrent

Размер .torrent файла 16 KB


Размер: 3.07 GB
Хэш (hash) релиза: 5091841fc50fd871dc93c417d2a896e94b0095ff
Подписка на обновления:

Еще никто не оставлял запись к записи скачать торрент Оцепеневшие от страха Aterrados . Будь первым!

!Обратная связь