Скачать через торрент Голубая игуана Blue Iguana Фильм бесплатно в хорошем качестве torrent

Скачивайте на UnionPeer.org фильмы через торрент без регистрации. Новинки кино в хорошем качестве через торрент. На UnionPeer.org можно скачать через торрент фильмы 2014 и 2015 годов. Самые новые фильмы.

Скачать торрент Голубая игуана Blue Iguana бесплатно через .torrent фильм мультфильм сериал

Статистика раздачи
Размер:  10.26 GB   |    Зарегистрирован:  6 дней   |    .torrent скачан:  76 раз   |   
Раздают:  1  
   
загрузка...
 
Автор Сообщение

Galfimbul

avatar Galfimbul


Голубая игуана /Blue Iguana

Год выхода: 2018
Жанр: Триллер, мелодрама, комедия
Режиссер: Хади Хаджэйг
В ролях: Сэм Рокуэлл, Бен Шварц, Саймон Кэллоу, Аманда Донохью, Фрэнсис Барбер, Фиби Фокс, Аль Уивер, Питер Фердинандо, Дженни Беде, Энтон Саундерс



О фильме: Мелкие мошенники Эдди и Пол досрочно выходят из тюрьмы и устраиваются на работу в нью-йоркское кафе. Казалось, им не светит уже ничего интересного в этой жизни. Но однажды к ним в забегаловку заглядывает авантюристка Кэтрин Руквуд. Она уговаривает парней отправиться в Лондон и украсть уникальный бриллиант - «Голубую игуану».

Страна: Великобритания
Студия: UK Film Studio Productions
Продолжительность: 01:41:09
Перевод: Дублированный | iTunes

Качество: BDRip 1080p
Видео: MPEG-4 AVC, 1920x804, 13.5 Mbit/s, 23.976 fps
Звук:
Аудио #01: 48 kHz, AC3, 5.1, 384 Kbps | iTunes | RUS |
Аудио #02: 48 kHz, AC3, 5.1, 640 Kbps | Оригинал | ENG |
Субтитры: Английские

General
Unique ID : 54902647882253409577444737563162492823 (0x294DDD881E69901F315868D53996BF97)
Complete name : D:Video111Blue.Iguana.2018.BDRip.1080p.selezen.mkv
Format : Matroska
Format version : Version 4
File size : 10.3 GiB
Duration : 1 h 41 min
Overall bit rate : 14.5 Mb/s
Movie name : Blue Iguana 2018 from селезень
Encoded date : UTC 2018-12-06 21:45:37
Writing application : mkvmerge v29.0.0 ('Like It Or Not') 64-bit
Writing library : libebml v1.3.6 + libmatroska v1.4.9

Video
ID : 1
Format : AVC
Format/Info : Advanced Video Codec
Format profile : High@L4.1
Format settings : CABAC / 5 Ref Frames
Format settings, CABAC : Yes
Format settings, ReFrames : 5 frames
Codec ID : V_MPEG4/ISO/AVC
Duration : 1 h 41 min
Bit rate : 13.5 Mb/s
Width : 1 920 pixels
Height : 804 pixels
Display aspect ratio : 2.40:1
Frame rate mode : Constant
Frame rate : 23.976 (24000/1001) FPS
Color space : YUV
Chroma subsampling : 4:2:0
Bit depth : 8 bits
Scan type : Progressive
Bits/(Pixel*Frame) : 0.365
Stream size : 9.53 GiB (93%)
Title : selezen
Writing library : x264 core 148 r2705kMod 3f5ed56
Encoding settings : cabac=1 / ref=5 / deblock=1:-2:-2 / analyse=0x3:0x133 / me=umh / subme=11 / psy=1 / fade_compensate=0.00 / psy_rd=1.05:0.05 / mixed_ref=1 / me_range=32 / chroma_me=1 / trellis=2 / 8x8dct=1 / cqm=0 / deadzone=21,11 / fast_pskip=0 / chroma_qp_offset=-3 / threads=12 / lookahead_threads=2 / sliced_threads=0 / nr=0 / decimate=0 / interlaced=0 / bluray_compat=0 / constrained_intra=0 / fgo=0 / bframes=8 / b_pyramid=2 / b_adapt=2 / b_bias=0 / direct=3 / weightb=1 / open_gop=0 / weightp=2 / keyint=240 / keyint_min=23 / scenecut=40 / intra_refresh=0 / rc_lookahead=50 / rc=2pass / mbtree=0 / bitrate=13500 / ratetol=1.0 / qcomp=0.60 / qpmin=0 / qpmax=51 / qpstep=4 / cplxblur=20.0 / qblur=0.5 / vbv_maxrate=50000 / vbv_bufsize=62500 / nal_hrd=none / filler=0 / ip_ratio=1.40 / pb_ratio=1.30 / aq=3:0.80
Language : English
Default : Yes
Forced : No

Audio #1
ID : 2
Format : AC-3
Format/Info : Audio Coding 3
Commercial name : Dolby Digital
Codec ID : A_AC3
Duration : 1 h 41 min
Bit rate mode : Constant
Bit rate : 384 kb/s
Channel(s) : 6 channels
Channel layout : L R C LFE Ls Rs
Sampling rate : 48.0 kHz
Frame rate : 31.250 FPS (1536 SPF)
Bit depth : 16 bits
Compression mode : Lossy
Stream size : 278 MiB (3%)
Title : iTunes
Language : Russian
Service kind : Complete Main
Default : Yes
Forced : Yes

Audio #2
ID : 3
Format : AC-3
Format/Info : Audio Coding 3
Commercial name : Dolby Digital
Codec ID : A_AC3
Duration : 1 h 41 min
Bit rate mode : Constant
Bit rate : 640 kb/s
Channel(s) : 6 channels
Channel layout : L R C LFE Ls Rs
Sampling rate : 48.0 kHz
Frame rate : 31.250 FPS (1536 SPF)
Bit depth : 16 bits
Compression mode : Lossy
Stream size : 463 MiB (4%)
Title : Original
Language : English
Service kind : Complete Main
Default : No
Forced : No

Text
ID : 4
Format : UTF-8
Codec ID : S_TEXT/UTF8
Codec ID/Info : UTF-8 Plain Text
Duration : 1 h 36 min
Bit rate : 69 b/s
Count of elements : 1659
Stream size : 48.9 KiB (0%)
Title : Full
Language : English
Default : No
Forced : No

Menu
00:00:00.000 : :Глава 01
00:14:04.802 : :Глава 02
00:28:22.409 : :Глава 03
00:42:19.704 : :Глава 04
00:55:31.286 : :Глава 05
01:08:18.303 : :Глава 06
01:21:13.243 : :Глава 07
01:38:31.239 : :Глава 08
Источник http://BlaTor.org

Трекер:  [ 07-Дек-2018 03:30 ]

  

Скачать .torrent

Размер .torrent файла 13 KB


Размер: 10.26 GB
Хэш (hash) релиза: 261a30186ba7b9ad0c7d1e42146220b4d61fa67c
Подписка на обновления:

Торренты, похожие на Голубая игуана Blue Iguana скачать торрент

Форум Название Автор Размер S L Добавлен
Зарубежные фильмы 2016-2018 (Новинки зарубежного кино) ·%· Голубая игуана / Blue Iguana (2018) BDRip 720p от k.e.n & MegaPeer | iTunes Galfimbul 40446319903.77 GB 0 0 1544679611

08:40

13-Дек-18

Зарубежные фильмы 2016-2018 (Новинки зарубежного кино) ·%· Голубая игуана / Blue Iguana (2018) HDRip от MegaPeer | iTunes Galfimbul 784209762748 MB 0 0 1544370627

18:50

9-Дек-18

Зарубежные фильмы 2016-2018 (Новинки зарубежного кино) ·%· Голубая игуана / Blue Iguana (2018) BDRip 720p от селезень | iTunes Galfimbul 53282120834.96 GB 0 0 1544251849

09:50

8-Дек-18

Зарубежные фильмы 2016-2018 (Новинки зарубежного кино) ·%· Голубая игуана / Blue Iguana (2018) BDRip от ExKinoRay | iTunes Galfimbul 15190527121.41 GB 0 0 1544133623

01:00

7-Дек-18

Зарубежные фильмы 2016-2018 (Новинки зарубежного кино) ·%· Голубая игуана / Blue Iguana (2018) BDRemux 1080p | iTunes Galfimbul 2746001164925.57 GB 0 0 1544047858

01:10

6-Дек-18

Зарубежные фильмы 2016-2018 (Новинки зарубежного кино) ·%· Голубая игуана / Blue Iguana (2018) WEB-DLRip-AVC | Локализованная версия | iTunes Galfimbul 780782239745 MB 0 0 1535787023

10:30

1-Сен-18

Зарубежные фильмы 2016-2018 (Новинки зарубежного кино) ·%· Голубая игуана / Blue Iguana (2018) WEB-DLRip-AVC от OlLanDGroup | iTunes Galfimbul 15672846021.46 GB 0 0 1535770208

05:50

1-Сен-18

Зарубежные фильмы 2016-2018 (Новинки зарубежного кино) ·%· Голубая игуана / Blue Iguana (2018) WEB-DLRip от Generalfilm | Локализованная версия | КПК | iTunes Galfimbul 385476701368 MB 0 0 1535746479

23:14

31-Авг-18

Зарубежные фильмы 2016-2018 (Новинки зарубежного кино) ·%· Голубая игуана / Blue Iguana (2018) WEB-DLRip от MegaPeer | Локализованная версия | iTunes Galfimbul 15684608001.46 GB 0 0 1535730020

18:40

31-Авг-18

Зарубежные фильмы до 2016 ·· Голубая игуана / The Blue Iguana (Джон Лафия / John Lafia) [1988, США, Мексика, боевик, комедия, VHSRip] AVO (Антон Пронин) Galfimbul 732508160699 MB 0 0 1321075290

08:21

12-Ноя-11

Еще никто не оставлял запись к записи скачать торрент Голубая игуана Blue Iguana . Будь первым!

!Обратная связь